#TITLE:Silent Hill;
#SUBTITLE:(Speed Mix);
#ARTIST:Thomas Howard;
#TITLETRANSLIT:;
#SUBTITLETRANSLIT:;
#ARTISTTRANSLIT:;
#CREDIT:;
#BANNER:Silent Hill-banner.png;
#BACKGROUND:Silent Hill-bg.png;
#LYRICSPATH:;
#CDTITLE:;
#MUSIC:silent hill mix.mp3;
#MUSICLENGTH:96.966;
#OFFSET:-0.520;
#SAMPLESTART:44.325;
#SAMPLELENGTH:12.000;
#SELECTABLE:YES;
#BPMS:0.000=140.000;
#STOPS:;
#BGCHANGES:;
#FIRSTBEAT:4.000;

#LASTBEAT:224.000;

#SONGFILENAME:Songs/ERICth MIX 2nd Style/silent hill mix/silent hill.sm;

#HASMUSIC:1;

#HASBANNER:1;


//---------------dance-single - MANIAC----------------
#NOTES:
     dance-single:
     MANIAC:
     hard:
     9:
     0.538,0.635,0.289,0.423,0.129,296.000,28.000,41.000,0.000,0.000:

0000
0000
0000
0000
,
0000
0000
0000
0000
,
0000
0000
0000
0000
,
0000
1010
1100
1010
,
2000
0000
0000
3100
,
2000
0000
0000
3020
0000
0030
0110
0000
,
1001
0000
1000
0010
0100
0010
0001
0010
,
2000
0000
0000
3000
,
0000
0000
0000
0100
0001
1000
0100
0200
,
0000
0000
0300
0000
,
1000
0000
0001
0000
1000
0000
0010
0000
0100
0000
0001
0100
0001
0100
0001
0000
,
0010
0000
0100
0000
1000
0000
0001
0000
1000
0000
0010
1000
0010
1000
0010
0000
,
0100
0000
0001
0000
1000
0000
0100
0000
1000
0000
0010
0100
0010
0100
0010
0000
,
0100
0000
0001
0000
0010
0000
0001
0000
1000
0000
0100
1000
0100
1000
0100
0000
,
0010
0000
0001
0000
1000
0000
0001
0000
1000
0000
0010
0001
0010
0001
0010
0000
,
0100
0000
0010
0000
0100
0000
0010
0000
0100
0000
0010
1000
0010
1000
0010
0000
,
1000
0000
0100
0000
1000
0000
0010
0000
0001
0000
0010
0100
0010
0000
0000
0000
,
1100
0000
0011
0000
0110
0000
1001
1000
,
0001
0000
0100
0010
0001
0000
0001
0100
,
0000
1000
0100
0010
0010
0001
0100
0010
,
2000
0000
0000
3010
0200
0000
0300
0000
,
1000
0010
0100
0010
0001
1000
0100
0010
,
0100
0000
1000
0010
0010
0000
0010
0100
,
0000
0000
1100
0000
0011
0100
0010
0110
,
0000
0000
0000
0020
0030
0020
0030
0020
,
0000
0000
0000
0000
0000
0030
1000
0000
,
1010
0000
0000
0220
0330
0000
0101
0000
,
0011
0000
0000
0220
0330
0000
1100
0000
,
1010
0000
0000
0220
0000
0000
0000
0330
,
0000
0000
1000
0010
0001
0010
1000
0000
,
1020
0000
0100
0100
0130
0000
0110
0000
,
1000
0100
1000
0001
2000
0000
3000
0000
,
0010
0100
0001
0100
1000
0100
0010
0000
,
1001
0000
0000
0100
0000
0100
0000
0100
,
0200
0000
0300
0000
,
0000
0000
0000
0100
0000
0100
0001
0010
,
2000
3200
0320
0032
,
0203
0302
2003
3020
,
2030
3200
0320
0032
,
0203
0302
2003
3020
0030
0000
1001
0000
,
2000
0000
0000
3001
0000
0000
1000
0000
,
0002
0000
0000
1003
0000
0000
0110
0000
,
2000
0000
0000
3010
0000
0000
1000
0000
,
0010
0100
0010
0001
1000
0000
0100
0000
,
0010
0000
1000
0100
0001
0100
1000
0010
,
2000
0000
3000
1000
0000
0000
0011
0000
,
0010
0100
0010
0100
0010
0100
0010
0000
,
0010
0000
0000
0100
0000
0100
0001
0001
,
1000
0000
0100
0000
0010
0000
0100
0000
0001
0000
0100
0010
0100
0010
0100
0000
,
0010
0000
0001
0000
0010
0000
1000
0000
0010
0000
0100
0001
0100
0001
0100
0000
,
0001
0000
1000
0000
0100
0000
1000
0000
0010
0000
1000
0100
1000
0100
1000
0000
,
0100
0010
0100
0010
0002
0000
0003
0110
,
1001
0000
1000
0000
0010
0000
0100
0000
0001
0000
0010
0001
0010
0001
0010
0000
,
0001
0000
1000
0000
0100
0000
1000
0000
0010
0000
0001
0010
0001
0010
0001
0000
,
1000
0000
0010
0000
0100
0000
0001
0000
0010
0000
0100
0010
0100
0010
0100
0000
,
0001
0100
0001
0002
0000
0000
0000
0000
,
0003
0000
0000
0000;

//---------------dance-single - ANOTHER----------------
#NOTES:
     dance-single:
     ANOTHER:
     medium:
     6:
     0.301,0.400,0.093,0.041,0.000,191.000,9.000,4.000,0.000,0.000:

0000
0000
0000
0000
,
0000
0000
0000
0000
,
0000
0000
0000
0000
,
0002
0000
0000
0000
,
1003
1000
1000
1000
,
0100
0100
0100
0100
,
0010
0010
0010
0010
,
0002
0000
0000
0000
,
0000
0000
1000
0000
,
1000
1000
1000
1000
,
1000
0003
1000
0000
0100
0000
0010
0000
,
0001
1000
0010
0100
,
0100
0010
0001
1000
,
0100
0010
0001
0001
,
1000
0100
0010
0001
,
1000
0100
0010
0001
,
1000
0000
0001
0000
1000
0001
1000
0001
,
0100
0001
1000
0001
0100
0001
0001
0000
,
1000
0001
1000
0100
,
0010
0000
0000
0001
,
0100
0000
0010
0100
0010
0000
0000
0000
,
0001
0000
1000
0000
,
0100
0000
0010
0000
0001
0010
0001
0100
,
0000
0000
0000
0000
0000
0000
0001
0001
,
0000
0000
0000
1000
0000
1000
0000
0002
,
0000
0000
0000
0000
0000
0000
0010
0003
,
0100
1000
0001
0001
,
0100
0001
1001
1001
,
0100
0010
1000
0010
,
0100
0001
1001
1001
,
0100
0010
1100
1000
,
0001
1000
1001
1001
,
0010
0010
0100
0100
,
0001
0000
1000
0001
1000
0001
1001
0000
,
0000
0001
0000
1000
,
0000
0001
0000
1000
,
0000
0100
0010
0001
,
0000
0100
0010
1000
,
0000
0001
1000
0001
,
1000
0100
0010
0001
0000
0000
0000
0000
,
1000
0000
0000
0001
0000
0000
1000
0000
,
0001
0000
0000
1000
0000
0000
0001
0000
,
1000
0000
0000
0001
0000
0000
0000
0000
,
0100
0000
0010
0000
0001
1000
0001
0000
,
0100
0000
0000
0001
,
1000
0100
0010
0100
0000
0000
0001
0000
,
1000
0100
0100
0010
,
0010
0000
0000
0001
0000
1000
0100
0010
,
0002
0000
1000
1000
,
1000
0000
1000
1000
,
1000
0000
0000
0000
1000
0000
1000
0003
,
0110
0000
1000
0100
,
0010
0000
0001
0000
0100
0000
0100
0100
,
0010
0000
0001
0000
1000
0000
1000
1000
,
0001
0000
0010
0000
0100
0000
0010
0001
,
0010
0001
1000
0100
0000
0000
0000
0000;

//---------------dance-single - BASIC----------------
#NOTES:
     dance-single:
     BASIC:
     easy:
     5:
     0.277,0.375,0.175,0.083,0.000,163.000,17.000,8.000,0.000,0.000:

0000
0000
0000
0000
,
1000
0000
0000
0000
,
0001
0000
0000
0000
,
1000
0000
0000
0000
,
0001
0000
0100
0000
,
0100
0000
0001
1000
,
0001
0000
0010
0000
,
0002
0000
0000
0000
,
0000
0000
0000
0000
,
1003
0100
0010
0100
,
0001
0000
1000
0000
,
0100
0000
0010
0001
,
0010
0000
0100
1000
,
0001
0000
0100
0001
,
0100
1000
0010
1010
,
0001
0010
0001
0011
,
0100
1000
0100
1100
,
0110
0110
0011
0100
,
0100
0100
0010
0010
,
1000
0001
0010
0100
,
0010
1000
0001
0010
,
0100
0100
1001
0000
,
0010
0100
1000
1000
,
0001
0000
0010
0100
,
1000
0001
0011
1100
,
0011
0000
0000
0100
,
0020
0000
0000
0030
,
0002
0000
0000
0003
,
2000
0000
0000
3000
,
0110
0000
0001
1000
,
0001
0100
0010
1000
,
0001
0100
0101
0001
,
0010
0100
0001
0100
,
1000
0010
0100
0010
,
0100
0100
0001
0001
,
0100
0100
0001
0001
,
0100
0100
1000
0010
,
0002
0100
0100
0010
,
1003
0010
0100
0020
,
0000
0000
0001
0031
,
0001
1000
0100
0010
,
0110
0001
1000
0100
,
0110
0001
0100
0100
,
0010
1000
0001
0010
,
0011
0000
0000
1100
,
1100
0000
0000
0000
,
0010
0001
1000
0100
,
0010
0000
0001
0100
,
0010
0000
0100
0010
,
0100
0000
0010
0100
,
0010
0000
0100
1000
,
0001
1000
0002
0000
,
0000
0000
0100
0100
,
0013
1000
0100
0010
,
0100
1000
0001
0010
,
0002
0000
0000
0000
,
0003
0000
0000
0000;
